Download Freddie Mercury - Never Boring (Deluxe Box Set) (2019) [24-96] torrent - GloDLS
Torrent Details For "Freddie Mercury - Never Boring (Deluxe Box Set) (2019) [24-96]"

Freddie Mercury - Never Boring (Deluxe Box Set) (2019) [24-96]

To download this torrent, you need a BitTorrent client: Vuze or BTGuard
Download this torrent
Download using Magnet Link

Health:
Seeds: 0
Leechers: 0
Completed:
Last Checked: 10-10-2019 18:19:07

Uploader Reputation points : 694
External: Torrent






Write a Review for the Uploader:   5   Say Thanks with one good review:
Share on Facebook


Details
Name:Freddie Mercury - Never Boring (Deluxe Box Set) (2019) [24-96]
Description:
?

Quality-Lossless
Release-2019
Duration-02:13:16
File Size-2.81 GB
Genre-Rock
Cover Size-1400px

CD1 - NEVER BORING
?----------------------------------------------------------------------------------------------
Analyzed: Never Boring (Deluxe Box Set) /  Artist: Freddie Mercury
----------------------------------------------------------------------------------------------
DR Peak RMS Duration Title [codec]
----------------------------------------------------------------------------------------------
DR6 -0.06 dB -8.52 dB 3:25 01 - The Great Pretender (Special Edition) [flac]
DR7 -0.04 dB -9.00 dB 3:39 02 - I Was Born To Love You (Special Edition) [flac]
DR6 -0.00 dB -11.25 dB 5:41 03 - Barcelona (2012 Orchestrated Version) [flac]
DR7 -0.06 dB -9.80 dB 3:52 04 - In My Defence (2000 Remix) [flac]
DR7 -0.02 dB -9.02 dB 4:29 05 - Love Kills (Special Edition) [flac]
DR6 -0.00 dB -8.77 dB 3:58 06 - How Can I Go On (2012 Orchestrated Version / Single Version) [flac]
DR7 -0.05 dB -9.31 dB 3:45 07 - Love Me Like There's No Tomorrow (Special Edition) [flac]
DR9 -0.02 dB -10.30 dB 3:37 08 - Living On My Own (No More Brothers Radio Mix) [flac]
DR7 -0.00 dB -11.70 dB 5:12 09 - The Golden Boy (2012 Orchestrated Version / Single Edit) [flac]
DR9 -0.15 dB -12.91 dB 3:18 10 - Time Waits For No One [flac]
DR7 -0.05 dB -8.33 dB 3:25 11 - She Blows Hot And Cold (Special Edition) [flac]
DR7 -0.07 dB -9.07 dB 4:05 12 - Made In Heaven (Special Edition) [flac]
----------------------------------------------------------------------------------------------
Number of files:    12
Official DR value:  DR7

Sampling rate: 96000 Hz
Average bitrate: 2909kbs
Bits per sample: 24 bit

CD2 - MR. BAD GUY
?----------------------------------------------------------------------------------------------
Analyzed: Never Boring (Deluxe Box Set) /  Artist: Freddie Mercury
----------------------------------------------------------------------------------------------
DR Peak RMS Duration Title [codec]
----------------------------------------------------------------------------------------------
DR8 -0.06 dB -9.42 dB 3:41 01 - Let's Turn It On (Special Edition) [flac]
DR7 -0.07 dB -9.07 dB 4:05 02 - Made In Heaven (Special Edition) [flac]
DR7 -0.04 dB -9.00 dB 3:39 03 - I Was Born To Love You (Special Edition) [flac]
DR9 -0.00 dB -10.45 dB 3:29 04 - Foolin' Around (Special Edition) [flac]
DR8 -0.07 dB -10.63 dB 3:33 05 - Your Kind Of Lover (Special Edition) [flac]
DR8 -0.08 dB -11.15 dB 4:09 06 - Mr. Bad Guy (Special Edition) [flac]
DR8 -0.07 dB -9.50 dB 4:08 07 - Man Made Paradise (Special Edition) [flac]
DR7 -0.07 dB -10.54 dB 3:00 08 - There Must Be More To Life Than This (Special Edition) [flac]
DR8 -0.07 dB -10.14 dB 3:23 09 - Living On My Own (Special Edition) [flac]
DR7 -0.06 dB -9.50 dB 3:43 10 - My Love Is Dangerous (Special Edition) [flac]
DR7 -0.05 dB -9.31 dB 3:45 11 - Love Me Like There's No Tomorrow (Special Edition) [flac]
----------------------------------------------------------------------------------------------
Number of files:    11
Official DR value:  DR8

Sampling rate: 96000 Hz
Average bitrate: 2870kbs
Bits per sample: 24 bit

CD3 - BARCELONA - SPECIAL EDITION
?----------------------------------------------------------------------------------------------
Analyzed: Never Boring (Deluxe Box Set) /  Artist: Freddie Mercury
----------------------------------------------------------------------------------------------
DR Peak RMS Duration Title [codec]
----------------------------------------------------------------------------------------------
DR8 -0.41 dB -14.59 dB 5:44 01 - Barcelona (New Orchestrated Version) [flac]
DR10 -1.01 dB -17.71 dB 4:51 02 - La Japonaise (New Orchestrated Version) [flac]
DR9 -0.93 dB -13.41 dB 5:46 03 - The Fallen Priest (New Orchestrated Version) [flac]
DR12 -1.00 dB -17.99 dB 4:21 04 - Ensueño (New Orchestrated Version) [flac]
DR8 -0.84 dB -13.61 dB 6:03 05 - The Golden Boy (New Orchestrated Version) [flac]
DR8 -0.78 dB -15.44 dB 2:50 06 - Guide Me Home (New Orchestrated Version) [flac]
DR7 -0.18 dB -10.36 dB 3:49 07 - How Can I Go On (New Orchestrated Version) [flac]
DR10 -0.99 dB -16.55 dB 3:56 08 - Exercises In Free Love (New Orchestrated Version) [flac]
DR8 -0.96 dB -15.26 dB 6:44 09 - Overture Piccante (New Orchestrated Version) [flac]
----------------------------------------------------------------------------------------------
Number of files:    9
Official DR value:  DR9

Sampling rate: 96000 Hz
Average bitrate: 2632kbs
Bits per sample: 24 bit
YouTube Video:
Category:FLAC
Language:Aucune/N/D
Total Size:2.62 GB
Info Hash:59E5AE9662A4A2B61B8B3A9F3BA4B4B5D4449745
Added By:was95was Verified UploaderMusic Lover
Date Added:2019-10-11 01:19:03
Torrent Status:Torrent Verified


Ratings:Not Yet Rated (Log in to rate it)


Tracker:
udp://tracker.piratepublic.com:1337/announce

This Torrent also has backup trackers
URLSeedersLeechersCompleted
udp://tracker.piratepublic.com:1337/announce000
udp://tracker.pirateparty.gr:6969/announce000
udp://tracker.coppersurfer.tk:6969/announce000
udp://tracker.leechers-paradise.org:6969/announce000
udp://9.rarbg.com:2710/announce000
http://p4p.arenabg.com:1337/announce000
http://explodie.org:6969/announce000
udp://tracker.opentrackr.org:1337/announce000
udp://exodus.desync.com:6969/announce000
udp://tracker.leechers-paradise.org:6969/announce000
udp://tracker.zer0day.to:1337/announce000
udp://open.demonii.si:1337/announce000
udp://exodus.desync.com:6969/announce000
udp://tracker.iamhansen.xyz:2000/announce000


File List: 





Comments
No comments still posted